#TITLE:Lonely;
#SUBTITLE:Expi3nze;
#ARTIST:2NE1;
#TITLETRANSLIT:;
#SUBTITLETRANSLIT:;
#ARTISTTRANSLIT:;
#CREDIT:;
#BANNER:bn.png;
#BACKGROUND:bg.png;
#LYRICSPATH:;
#CDTITLE:cdtitle.png;
#MUSIC:Lonely.mp3;
#OFFSET:-0.232;
#SAMPLESTART:60.863;
#SAMPLELENGTH:22.737;
#SELECTABLE:YES;
#BPMS:0.000=94.999,1.000=95.002,2.000=94.999,4.000=95.002,5.000=94.999,7.000=95.002,8.000=94.999,9.000=95.002,10.000=94.999,12.000=95.002,13.000=94.999,15.000=95.002,16.000=94.999,18.000=95.002,19.000=94.999,20.000=95.002,21.000=94.999,23.000=95.002,24.000=94.999,26.000=95.002,27.000=94.999,28.000=95.002,29.000=94.999,31.000=95.002,32.000=94.999,34.000=95.002,35.000=94.999,37.000=95.002,38.000=94.999,39.000=95.002,40.000=94.999,42.000=95.002,43.000=94.999,45.000=95.002,46.000=94.999,47.000=95.002,48.000=94.999,50.000=95.002,51.000=94.999,53.000=95.002,54.000=94.999,55.000=95.002,56.000=94.999,58.000=95.002,59.000=94.999,61.000=95.002,62.000=94.999,64.000=95.002,65.000=94.999,66.000=95.002,67.000=94.999,69.000=95.002,70.000=94.999,72.000=95.002,73.000=94.999,75.000=95.002,76.000=94.999,77.000=95.002,78.000=94.999,80.000=95.002,81.000=94.999,83.000=95.002,84.000=94.999,85.000=95.002,86.000=94.999,88.000=95.002,89.000=94.999,91.000=95.002,92.000=94.999,94.000=95.002,95.000=94.999,96.000=95.002,97.000=94.999,99.000=95.002,100.000=94.999,102.000=95.002,103.000=94.999,104.000=95.002,105.000=94.999,107.000=95.002,108.000=94.999,110.000=95.002,111.000=94.999,112.000=95.002,113.000=94.999,115.000=95.002,116.000=94.999,118.000=95.002,119.000=94.999,121.000=95.002,122.000=94.999,123.000=95.002,124.000=94.999,126.000=95.002,127.000=94.999,129.000=95.002,130.000=94.999,131.000=95.002,132.000=94.999,134.000=95.002,135.000=94.999,137.000=95.002,138.000=94.999,140.000=95.002,141.000=94.999,142.000=95.002,143.000=94.999,145.000=95.002,146.000=94.999,148.000=95.002,149.000=94.999,151.000=95.002,152.000=94.999,153.000=95.002,154.000=94.999,156.000=95.002,157.000=94.999,159.000=95.002,160.000=94.999,162.000=95.002,163.000=94.999,164.000=95.002,165.000=94.999,167.000=95.002,168.000=94.999,170.000=95.002,171.000=94.999,172.000=95.002,173.000=94.999,175.000=95.002,176.000=94.999,178.000=95.002,179.000=94.999,180.000=95.002,181.000=94.999,183.000=95.002,184.000=94.999,186.000=95.002,187.000=94.999,189.000=95.002,190.000=94.999,191.000=95.002,192.000=94.999,194.000=95.002,195.000=94.999,197.000=95.002,198.000=94.999;
#STOPS:;
#BGCHANGES:;
// cache tags:
#FIRSTBEAT:0.000;
#LASTBEAT:195.000;
#SONGFILENAME:Songs/SDO pack 3/Lonely (2NE1)/Lonely.sm;
#HASMUSIC:1;
#HASBANNER:1;
#MUSICLENGTH:126.017;
// end cache tags

//---------------dance-single - ----------------
#NOTES:
     dance-single:
     :
     Hard:
     19:
     1.000,1.000,1.000,1.000,0.742,505.000,206.000,177.000,0.000,292.000:
0010
0000
0100
0010
0000
1000
0100
0010
0100
0000
1000
0000
0010
0000
0100
1000
,
0001
0000
0010
0001
0000
1000
0010
0000
1000
0000
0010
0100
0000
0010
0000
0000
,
0001
0000
0100
0010
0000
0001
0000
0000
0100
0000
0010
1000
0100
0010
0100
0000
,
1000
0000
0010
0100
0000
0001
0000
0000
0011
0000
1001
0000
1100
0000
0100
0000
,
0010
0000
0100
0010
0000
1000
0100
0010
0100
0000
1000
0000
0010
0000
0100
1000
,
0001
0000
0010
0001
0000
1000
0010
0000
1000
0000
0010
0100
0000
0010
0000
0000
,
0001
0000
0100
0010
0000
0001
0000
0000
0100
0000
0010
1000
0100
0010
0100
0000
,
1000
0000
0010
0100
0000
0001
0000
0000
0011
0000
1001
0000
1100
0000
1000
0000
,
0002
0000
0000
0000
0000
0000
0000
0000
0000
0000
0000
0000
0200
0000
0000
0000
0000
0000
0320
0000
0000
2030
0000
0000
3000
0000
0000
0200
0000
0000
0000
0000
0300
0020
0000
0000
0030
0000
0000
0200
0000
0000
0000
0000
0000
0300
0000
0000
,
0203
0000
0000
0000
0000
0000
0000
0000
0000
0002
0000
0000
0013
0000
0000
0000
0000
0000
0011
0000
0000
0002
0000
0000
0000
0000
0000
2003
0000
0000
0000
0000
3000
0020
0000
0000
1030
0000
0000
0000
0000
0000
2000
0000
0000
0000
0000
0000
,
3320
0000
0000
0000
2000
3200
0301
0201
0000
0300
2000
3200
0301
0201
0000
0300
,
2030
0000
0010
0000
0001
0010
0000
0100
0010
0000
0101
0000
0101
0000
0100
0000
,
3002
0000
0020
0030
0200
0000
0320
2030
3000
0020
0230
0310
0020
0000
2030
3000
,
0203
0000
0000
0000
0000
0000
0020
0000
0000
0000
0000
0000
2030
0000
0000
0000
0000
0000
3011
0000
0000
0002
0000
0000
0000
0000
0000
2003
0000
0000
0000
0000
3000
0020
0000
0000
1030
0000
0000
0000
0000
0000
2000
0000
0000
0000
0000
0000
,
3320
0000
0000
0000
2000
3200
0301
0201
0000
0300
0001
0001
0000
0000
0001
0000
,
2030
0000
0000
0000
0020
0000
0000
0030
,
3002
0020
0000
0000
0000
0000
0000
0000
0000
0000
0000
0000
0000
0000
0000
0000
0000
0000
0000
0000
0000
0000
0000
0000
2030
0000
0000
0000
0000
0000
0000
0000
0000
0000
0000
0000
0000
0000
0000
0000
0000
0000
0000
0000
0000
0000
0000
0000
3010
0000
0000
0000
0000
0000
0000
0000
0000
0000
0000
0000
0000
0000
0000
0000
0000
0000
0000
0000
0000
0000
0000
0000
0010
0000
0000
0000
0000
0000
0000
0000
0000
0000
0000
0000
0110
0000
0000
0000
0000
0000
0000
0000
0000
0000
0000
0000
1110
0000
0000
0000
0000
0000
0000
0000
0000
0000
0000
0000
0010
0000
0000
0000
0000
0000
0000
0000
0000
0000
0000
0000
0100
0000
0000
0000
0000
0000
0000
0000
0000
0000
0000
0000
0110
0000
0000
0000
0000
0000
0000
0000
0000
0000
0000
0000
1110
0000
0000
0000
0000
0000
0000
0000
0000
0000
0000
0000
0010
0000
0000
0000
0000
0000
0000
0000
0000
0000
0000
0000
1000
0000
0000
0000
0000
0000
0000
0000
0000
0000
0000
0000
1100
0000
0000
0000
0000
0000
0000
0000
0000
0000
0000
0000
,
1123
0000
1100
0000
1101
0000
0001
0101
1101
0001
1000
1100
1101
0100
1000
1000
,
2130
0000
0200
0000
0311
0000
0100
0110
0111
0110
0010
0100
0011
0101
0011
0001
,
3021
0000
0002
0000
2003
0000
3001
1100
1101
0001
0100
1100
1101
1000
0100
0000
,
0032
0000
1110
0000
0100
0000
0010
0110
1110
0010
0100
0110
1110
0010
1000
1100
,
1123
0000
1100
0000
1101
0000
0001
0101
1101
0001
1000
1100
1101
0100
1000
1000
,
2130
0000
0200
0000
0311
0000
0100
0110
0111
0110
0010
0100
0011
0101
0011
0001
,
3201
0000
0000
0000
0000
0000
0000
0000
0320
0000
2000
3100
2130
0000
0000
0000
,
3002
0000
0200
0000
0320
0000
2130
3120
1030
0100
2110
0010
3210
1000
2310
3120
,
2133
0000
0000
0000
0111
0000
0010
0110
0211
0010
0302
0010
0213
0001
0310
0000
,
3120
0000
0200
0000
0302
0000
2003
3102
1103
1001
0201
0001
1302
1100
2003
3102
,
2133
0000
0000
0000
0111
0000
0010
0110
0211
0010
0302
0010
0213
0001
0310
0000
,
3012
0000
0200
0000
0320
0000
2130
3120
1030
0100
2110
0010
3210
1000
2310
3120
,
2133
0000
0000
0000
0111
0000
0010
0110
0211
0010
0302
0010
0213
0001
0310
0000
,
3120
0000
0200
0000
0302
0000
2003
3102
1103
1001
0201
0001
1302
1100
2003
3102
,
2133
0000
0000
0000
0000
0000
0000
0000
0022
0000
0000
0000
0000
0000
0000
0033
,
3022
0000
0000
0030
0010
0000
0110
1100
1000
0010
0110
1010
1100
0110
0010
1000
,
1203
0000
1000
0000
1011
0000
0010
0011
1010
1001
0010
1001
1001
1000
0001
0011
,
1302
0000
1000
0000
1100
0000
0010
0110
1010
0100
0010
1100
0110
0010
1000
1100
,
2103
0000
0010
0000
0111
0000
0001
0011
0110
0101
0011
0001
0100
0110
0110
0100
,
3012
0000
0000
0000
0010
0000
0110
1100
1000
0010
0110
1010
1100
0110
0010
1000
,
1203
0000
1000
0000
1011
0000
0010
0011
1010
1001
0010
1001
1001
1000
0001
0011
,
1302
0000
1000
0000
1100
0000
0010
0110
1010
0100
0010
1100
0110
0010
1000
1100
,
2103
0000
0000
0000
0000
0000
0000
0000
0020
0000
0002
0203
0332
0000
0000
0003
,
3002
0000
0200
0000
0320
0000
2130
3120
1030
0100
2110
0010
3210
1000
2310
3120
,
2133
0000
0000
0000
0111
0000
0010
0110
0211
0010
0302
0010
0213
0001
0310
0000
,
3120
0000
0200
0000
0302
0000
2003
3102
1103
1001
0201
0001
1302
1100
2003
3102
,
2133
0000
0000
0000
0111
0000
0010
0110
0211
0010
0302
0010
0213
0001
0310
0000
,
3012
0000
0200
0000
0320
0000
2130
3120
1030
0100
2110
0010
3210
1000
2310
3120
,
2133
0000
0000
0000
0111
0000
0010
0110
0211
0010
0302
0010
0213
0001
0310
0000
,
3120
0000
0200
0000
0302
0000
2003
3102
1103
1001
0201
0001
1302
1100
2003
3102
,
2133
0000
0000
0000
0000
0000
0000
0000
0022
0000
0203
0030
0300
0000
0002
0000
,
0003
0000
0000
3000
,
0000
0000
0000
0000
;
